Marty Friedman - 99 Secret Lead Guitar Phrases

Download Marty Friedman - 99 Secret Lead Guitar Phrases ebook (pdf)
Marty Friedman - 99 Secret Lead Guitar PhrasesDVD5 in ISO-image | VOB | 720 x 480 | MPEG2 ~5721 kbps | 29.970 fps
AC-3 | 192 kbps | 48.0 KHz | 2 channels | 01:12:01 | 4.29 GBLanguages: English, Japanese | Genre: Video Tutorial / Instrumental Guitar
"If you've ever been stuck in a rut, this DVD is for you! This unbelievably easy to use instructional DVD features 99 guitar phrases, which will increase your musical vocabulary and your ability to improvise great off-the-cuff lead guitar. For the first time ever, Marty reveals the essence of his guitar style in great detail! MARTY FRIEDMAN has sold over 10 million albums with the multi-platinum band Megadeth. He also has a dedicated following for his own solo albums."
Along with touring, he has given many music/guitar seminars and clinics all over the U.S., Japan, Europe and South America. Marty has received extremely high acclaim and many awards around the world for his unmistakably 'Marty-esque' way of playing the guitar.

MediaInfo:General
Complete name : VTS_15_1.VOB
Format : MPEG-PS
File size : 106 MiB
Duration : 2mn 19s
Overall bit rate : 6 358 Kbps
Video #224
ID : 224 (0xE0)
Format : MPEG Video
Format version : Version 2
Format profile : Main@Main
Format settings, Matrix : Default
Duration : 2mn 19s
Bit rate mode : Variable
Bit rate : 5 721 Kbps
Nominal bit rate : 6 600 Kbps
Width : 720 pixels
Height : 480 pixels
Display aspect ratio : 4:3
Frame rate : 29.970 fps
Standard : NTSC
Colorimetry : 4:2:0
Scan type : Interlaced
Scan order : Bottom Field First
Bits/(Pixel*Frame) : 0.552
Stream size : 95.3 MiB (90%)
Audio #128
ID : 128 (0x80)
Format : AC-3
Format/Info : Audio Coding 3
Duration : 2mn 19s
Bit rate mode : Constant
Bit rate : 192 Kbps
Channel(s) : 2 channels
Channel positions : L R
Sampling rate : 48.0 KHz
Stream size : 3.20 MiB (3%)
Audio #129
ID : 129 (0x81)
Format : AC-3
Format/Info : Audio Coding 3
Duration : 2mn 19s
Bit rate mode : Constant
Bit rate : 192 Kbps
Channel(s) : 2 channels
Channel positions : L R
Sampling rate : 48.0 KHz
Stream size : 3.20 MiB (3%)
Screenshots
For more, Visit my
The Rules"
Filepost.comMARTY_FRIEDMAN_99.part01.rar
MARTY_FRIEDMAN_99.part02.rar
MARTY_FRIEDMAN_99.part03.rar
MARTY_FRIEDMAN_99.part04.rar
MARTY_FRIEDMAN_99.part05.rar
MARTY_FRIEDMAN_99.part06.rar
MARTY_FRIEDMAN_99.part07.rar
MARTY_FRIEDMAN_99.part08.rar
MARTY_FRIEDMAN_99.part09.rar
"
Comments for "Marty Friedman - 99 Secret Lead Guitar Phrases"